The Constant Gardener 2005 BRRip XviD MP3-RARBG

http://www.imdb.com/title/tt0387131/
image
image
image
image
image

[mediainfo]
Video
ID : 0
Format : MPEG-4 Visual
Format profile : [email protected]
Format settings, BVOP : No
Format settings, QPel : No
Format settings, GMC : No warppoints
Format settings, Matrix : Default (H.263)
Codec ID : XVID
Codec ID/Hint : XviD
Duration : 2h 8mn
Bit rate : 1 598 Kbps
Width : 720 pixels
Height : 400 pixels
Display aspect ratio : 16:9
Frame rate : 23.976 fps
Color space : YUV
Chroma subsampling : 4:2:0
Bit depth : 8 bits
Scan type : Progressive
Compression mode : Lossy
Bits/(Pixel*Frame) : 0.231
Stream size : 1.43 GiB (89%)
Title : RARBG.COM – The.Constant.Gardener.2005.BRRip.XviD.MP3-RARBG
Writing library : Lavc56.14.100

Audio
ID : 1
Format : MPEG Audio
Format version : Version 1
Format profile : Layer 3
Mode : Joint stereo
Mode extension : MS Stereo
Codec ID : 55
Codec ID/Hint : MP3
Duration : 2h 8mn
Bit rate mode : Constant
Bit rate : 192 Kbps
Channel(s) : 2 channels
Sampling rate : 48.0 KHz
Compression mode : Lossy
Stream size : 176 MiB (11%)
Alignment : Aligned on interleaves
Interleave, duration : 24 ms (0.58 video frame)
Interleave, preload duration : 24 ms
Title : RARBG.COM – The.Constant.Gardener.2005.BRRip.XviD.MP3-RARBG

[/mediainfo]


Download the.constant.gardener.2005.brrip.xvid.mp3.rarbg.zip
Direct Link


Download


Download the.constant.gardener.2005.brrip.xvid.mp3.rarbg.zip
Mediafire


Download


Download the.constant.gardener.2005.brrip.xvid.mp3.rarbg.zip
2Downloadz


Download


Download the.constant.gardener.2005.brrip.xvid.mp3.rarbg.zip
Letitbit


Download


Download the.constant.gardener.2005.brrip.xvid.mp3.rarbg.zip
zshare


Download

Both comments and pings are currently closed.

Comments are closed.